<?xml version="1.0" standalone="no"?>
<!DOCTYPE svg PUBLIC "-//W3C//DTD SVG 1.1//EN" "http://www.w3.org/Graphics/SVG/1.1/DTD/svg11.dtd" >
<svg xmlns="http://www.w3.org/2000/svg">
<metadata>Generated by IcoMoon</metadata>
<defs>
<font id="icomoon" horiz-adv-x="1024">
<font-face units-per-em="1024" ascent="960" descent="-64" />
<missing-glyph horiz-adv-x="1024" />
<glyph unicode="&#x20;" horiz-adv-x="512" d="" />
<glyph unicode="&#xe900;" glyph-name="1" d="M894.606 846.222h-765.215c-71.652 0-129.392-68.987-129.392-154.597v-487.252c0-85.606 57.739-154.596 129.392-154.596h765.215c71.657 0 129.394 68.989 129.394 154.596v487.252c0 85.61-57.737 154.597-129.394 154.597zM874.433 746.482l-362.433-234.574-362.435 234.574h724.868zM894.606 149.515h-765.215c-25.044 0-45.913 24.94-45.913 54.858v477.277l402.782-272.808c7.653-6.649 16.696-10.805 25.739-10.805s18.087 3.325 25.739 10.805l402.782 272.808v-477.277c0-30.754-20.867-54.858-45.915-54.858z" />
<glyph unicode="&#xe901;" glyph-name="2" d="M796.291 833.2c-81.801 81.8-190.602 126.8-306.202 126.8s-224.6-45-306.4-126.8c-81.8-81.8-126.8-190.6-126.8-306.2 0-233.999 221.2-428.599 340.2-533.201 16.6-14.598 30.8-26.999 42.2-37.598 14.2-13.403 32.6-20.002 50.8-20.002s36.6 6.599 50.8 20.002c11.4 10.598 25.6 23.199 42.2 37.598 118.8 104.602 340.201 299.201 340.201 533.201-0.199 115.6-45.198 224.4-126.999 306.2zM543.289 38.599c-16.8-14.797-31.4-27.597-43.4-38.997-5.6-5.2-14.2-5.2-19.6 0-12 11.196-26.6 23.996-43.4 38.997-112 98.401-320 281.401-320 488.401 0 205.6 167.4 373 373.2 373s373.2-167.4 373.2-373.2c-0.199-206.8-208.202-389.8-320-488.201zM490.088 734.194c-105.2 0-190.8-85.6-190.8-190.8s85.6-190.803 190.8-190.803c105.2 0 190.798 85.403 190.798 190.603s-85.598 191-190.798 191zM490.088 412.394c-72.2 0-130.8 58.8-130.8 130.8s58.8 130.8 130.8 130.8c72 0 130.8-58.8 130.8-130.8s-58.8-130.8-130.8-130.8z" />
<glyph unicode="&#xe902;" glyph-name="3" d="M368.635 697.274l-57.926 57.926-289.625-289.638 289.631-289.631 57.926 57.926-193.662 193.663h849.021v81.92h-843.199l187.834 187.834z" />
<glyph unicode="&#xe903;" glyph-name="4" d="M655.364 697.274l57.926 57.926 289.628-289.638-289.632-289.631-57.926 57.926 193.663 193.663h-849.023v81.92h843.198l-187.834 187.834z" />
<glyph unicode="&#xe904;" glyph-name="5" d="M500.852-64c-9.863 0-19.725 1.857-28.923 5.589-278.5 112.883-458.456 379.891-458.456 680.232 0 43.315 3.82 86.66 11.366 128.847 4.931 27.673 24.456 50.828 50.944 60.426l398.167 144.197c17.335 6.275 36.436 6.281 53.792-0.005l398.040-144.197c26.476-9.598 46.002-32.753 50.933-60.431 7.545-42.177 11.366-85.522 11.366-128.837 0-300.374-179.903-567.382-458.307-680.238-9.197-3.721-19.060-5.583-28.923-5.583zM500.841 911.237c-3.482 0-6.963-0.598-10.286-1.799l-398.157-144.198c-10.17-3.683-17.662-12.551-19.557-23.144-7.038-39.367-10.604-79.836-10.604-120.276 0-280.385 168.008-529.656 428.010-635.042 6.761-2.735 14.476-2.741 21.197-0.005 259.926 105.362 427.873 354.63 427.873 635.047 0 40.44-3.568 80.908-10.604 120.265-1.894 10.604-9.388 19.472-19.548 23.16l-398.029 144.192c-3.323 1.201-6.804 1.799-10.297 1.799zM419.344 276.744c-6.467 0-12.668 2.573-17.238 7.144l-130.494 130.498c-9.524 9.521-9.524 24.959 0 34.479 9.524 9.523 24.955 9.523 34.478 0l113.254-113.254 276.119 276.108c9.523 9.523 24.953 9.523 34.476 0 9.526-9.518 9.526-24.959 0-34.479l-293.357-293.352c-4.57-4.576-10.774-7.144-17.238-7.144z" />
<glyph unicode="&#xe905;" glyph-name="6" d="M492.055 169.436c-34.186 2.409-67.187 10.952-98.094 25.393-5.586 2.606-11.986 2.908-17.805 0.791-5.793-2.12-10.519-6.449-13.135-12.045l-29.21-62.628c-62.789 34.281-114.594 86.088-148.863 148.877l62.615 29.197c5.597 2.606 9.937 7.329 12.044 13.135 2.107 5.809 1.815 12.219-0.791 17.805-14.429 30.907-22.982 63.908-25.391 98.117-1.722 24.215-22.074 43.195-46.336 43.195h-163.817c-12.847 0-23.273-10.427-23.273-23.273 0-282.322 229.679-512 512-512 12.846 0 23.273 10.427 23.273 23.273v163.817c0 24.261-18.98 44.613-43.218 46.346zM488.727-16.873c-238.184 11.776-429.824 203.428-441.6 441.613l139.881 0.046c2.257-32.105 9.158-63.301 20.55-93.069l-64.035-29.857c-5.597-2.609-9.937-7.332-12.044-13.138s-1.827-12.206 0.78-17.805c41.612-89.065 113.594-161.047 202.658-202.657 5.576-2.609 11.976-2.898 17.805-0.781 5.806 2.117 10.529 6.446 13.138 12.045l29.857 64.033c29.768-11.392 60.951-18.268 93.010-20.457v-139.973zM465.454 494.546v23.273c0 12.833-10.437 23.273-23.273 23.273h-69.816c-12.849 0-23.273 10.424-23.273 23.273 0 12.846 10.424 23.27 23.273 23.27h69.816c38.505 0 69.819-31.311 69.819-69.816v-23.273c0-38.505-31.314-69.819-69.819-69.819h-23.273c-12.833 0-23.273-10.437-23.273-23.273v-46.546h93.092c12.846 0 23.273-10.424 23.273-23.273 0-12.846-10.427-23.27-23.273-23.27h-116.362c-12.849 0-23.273 10.424-23.273 23.27v69.819c0 38.505 31.311 69.819 69.816 69.819h23.273c12.836 0 23.273 10.437 23.273 23.273zM674.908 424.727h-93.089c-12.846 0-23.273 10.427-23.273 23.273v116.365c0 12.846 10.427 23.27 23.273 23.27s23.273-10.424 23.273-23.27v-93.092h69.816v93.092c0 12.846 10.427 23.27 23.273 23.27s23.273-10.424 23.273-23.27v-232.73c0-12.846-10.427-23.27-23.273-23.27s-23.273 10.424-23.273 23.27v93.092zM1024 448c0-231.539-156.045-434.967-379.461-494.684-2.015-0.535-4.040-0.791-6.029-0.791-10.286 0-19.689 6.876-22.482 17.267-3.315 12.416 4.063 25.17 16.479 28.498 73.111 19.538 138.227 56.074 191.708 104.576l-48.906 48.906c-9.088 9.088-9.088 23.821 0 32.909s23.818 9.088 32.906 0l48.942-48.942c70.446 78.021 114.189 179.433 119.657 288.978h-69.179c-12.846 0-23.27 10.424-23.27 23.27 0 12.849 10.424 23.273 23.27 23.273h69.225c-5.481 110.825-49.92 211.574-119.864 288.815l-48.791-48.791c-4.552-4.55-10.496-6.819-16.456-6.819-5.957 0-11.904 2.269-16.453 6.819-9.088 9.088-9.088 23.82 0 32.908l48.791 48.791c-77.243 69.958-177.989 114.397-288.814 119.878v-69.225c0-12.847-10.427-23.273-23.273-23.273s-23.273 10.426-23.273 23.273v69.178c-109.532-5.469-210.954-49.21-288.977-119.657l48.943-48.943c9.087-9.088 9.087-23.82 0-32.908-4.55-4.55-10.496-6.819-16.454-6.819s-11.904 2.269-16.454 6.819l-48.908 48.908c-48.5-53.481-85.039-118.587-104.576-191.698-3.328-12.416-16.093-19.794-28.498-16.476-12.416 3.315-19.793 16.069-16.477 28.498 59.706 223.418 263.134 379.461 494.673 379.461 282.322 0 512-229.679 512-512z" />
<glyph unicode="&#xe906;" glyph-name="7" d="M1006.932 25.5h-17.065v238.932h-204.8v-238.932h-51.2v392.532h-204.8v-392.532h-51.2v529.068h-204.8v-529.068h-51.201v665.6h-204.8v-665.6c-9.421 0-17.067-7.629-17.067-17.068 0-9.436 7.646-17.065 17.067-17.065h989.866c9.421 0 17.068 7.629 17.068 17.065 0 9.439-7.647 17.068-17.068 17.068zM51.2 25.5v631.466h136.533v-631.466h-136.533zM307.2 25.5v494.932h136.532v-494.932h-136.532zM563.2 25.5v358.4h136.532v-358.4h-136.532zM819.2 25.5v204.8h136.532v-204.8h-136.532zM201.062 876.94l618.99-357.375-93.133-9.029c-9.37-0.904-16.246-9.249-15.324-18.637 0.852-8.824 8.276-15.411 16.963-15.411 0.548 0 1.093 0.033 1.674 0.084l146.14 14.167c0.274 0.015 0.497 0.187 0.753 0.238 1.347 0.187 2.644 0.545 3.924 1.057 0.238 0.102 0.494 0.051 0.735 0.154 0.169 0.087 0.271 0.241 0.443 0.325 0.051 0.018 0.102 0.033 0.154 0.069 0.187 0.102 0.41 0.136 0.596 0.238 1.485 0.819 2.834 1.894 4.029 3.156 0.187 0.205 0.358 0.41 0.545 0.632 0.307 0.34 0.512 0.717 0.786 1.093 0.374 0.512 0.852 0.955 1.178 1.518 0.238 0.41 0.238 0.87 0.443 1.298 0.274 0.579 0.632 1.108 0.837 1.723 0.22 0.632 0.238 1.28 0.392 1.946 0.205 0.94 0.358 1.825 0.41 2.765 0.033 0.648 0.12 1.247 0.069 1.894-0.018 0.205 0.084 0.376 0.051 0.581-0.051 0.476-0.307 0.852-0.394 1.313-0.169 0.955-0.41 1.861-0.75 2.765-0.154 0.443-0.12 0.888-0.307 1.331l-60.808 133.632c-3.909 8.584-14.029 12.424-22.597 8.465-8.584-3.908-12.372-14.013-8.466-22.596l38.743-85.164-619.009 357.343c-8.192 4.71-18.603 1.894-23.313-6.246-4.71-8.175-1.912-18.62 6.246-23.33z" />
<glyph unicode="&#xe907;" glyph-name="8" d="M512 960c-282.321 0-512-229.679-512-512s229.679-512 512-512c282.322 0 512 229.678 512 512s-229.678 512-512 512zM512-17.454c-256.652 0-465.455 208.801-465.455 465.454 0 256.652 208.803 465.455 465.455 465.455s465.454-208.803 465.454-465.455c0-256.653-208.801-465.454-465.454-465.454zM512 797.090c12.846 0 23.273 10.403 23.273 23.273v46.545c0 12.87-10.427 23.273-23.273 23.273s-23.273-10.403-23.273-23.273v-46.545c0-12.87 10.427-23.273 23.273-23.273zM512 98.913c-12.846 0-23.273-10.404-23.273-23.273v-46.546c0-12.869 10.427-23.273 23.273-23.273s23.273 10.404 23.273 23.273v46.546c0 12.869-10.427 23.273-23.273 23.273zM884.365 424.73h46.546c12.846 0 23.27 10.404 23.27 23.273s-10.424 23.273-23.27 23.273h-46.546c-12.846 0-23.273-10.404-23.273-23.273s10.427-23.273 23.273-23.273zM139.636 471.276h-46.545c-12.847 0-23.273-10.404-23.273-23.273s10.426-23.273 23.273-23.273h46.545c12.847 0 23.273 10.404 23.273 23.273s-10.426 23.273-23.273 23.273zM535.273 561.060v119.667c0 12.869-10.427 23.273-23.273 23.273s-23.273-10.404-23.273-23.273v-119.667c-40.028-10.404-69.819-46.523-69.819-89.787 0-17.221 5.005-33.142 13.197-46.989l-192.559-192.558c-9.1-9.098-9.1-23.808 0-32.906 4.538-4.539 10.496-6.82 16.454-6.82s11.915 2.281 16.454 6.82l192.558 192.558c13.847-8.192 29.768-13.197 46.989-13.197 51.338 0 93.089 41.751 93.089 93.092 0 43.264-29.788 79.383-69.816 89.787zM512 424.727c-25.669 0-46.546 20.877-46.546 46.546s20.877 46.546 46.546 46.546c25.669 0 46.546-20.877 46.546-46.546s-20.877-46.546-46.546-46.546z" />
<glyph unicode="&#xe908;" glyph-name="9" d="M944.090 589.237l-311.83-0.479-95.872 287.626c-5.436 17.737-22.732 29.721-42.006 29.721s-36.569-11.984-42.5-29.721l-95.871-287.626-311.335 0.479c-19.273 0-36.57-11.985-42.5-29.721s0.494-37.392 16.308-48.417l252.527-177.371-96.86-287.146c-5.93-17.737 0.494-37.392 16.308-48.419 15.814-11.021 36.569-11.021 52.384 0l251.539 178.332 251.541-178.332c7.906-5.751 16.799-8.149 26.187-8.149 9.394 0 18.286 2.878 26.193 8.149 15.813 11.027 22.237 30.682 16.309 48.419l-96.86 287.146 252.529 177.371c15.813 11.026 22.237 30.681 16.309 48.417-5.934 17.737-23.229 29.721-42.501 29.721z" />
<glyph unicode="&#xe909;" glyph-name="10" d="M511.38 489.247c-41.723 0-75.471 33.748-75.471 75.471 0 41.454 33.748 75.471 75.471 75.471 41.72 0 75.471-33.751 75.471-75.471 0-14.618 11.958-26.575 26.573-26.575 14.618 0 26.575 11.958 26.575 26.575 0 60.854-42.519 113.206-102.044 125.962v34.014c0 14.616-11.96 26.574-26.575 26.574s-26.575-11.959-26.575-26.574v-34.014c-69.358-14.618-114.002-82.913-99.121-152.538 12.49-59.525 65.106-101.78 125.696-102.044 41.72 0 75.471-33.751 75.471-75.471 0-41.723-33.751-75.471-75.471-75.471-41.723 0-75.471 33.748-75.471 75.471 0 14.615-11.958 26.573-26.575 26.573-14.615 0-26.573-11.958-26.573-26.573 0-60.59 42.519-113.206 102.044-125.696v-50.491c0-14.618 11.96-26.575 26.575-26.575s26.575 11.958 26.575 26.575v50.491c69.358 14.881 113.736 83.177 99.121 152.535-12.49 59.261-64.842 101.78-125.696 101.78zM874.824 808.244c-0.673 0.674-1.347 1.347-1.795 1.796-95.631 96.529-225.836 150.406-361.649 149.957-282.404 0-511.38-228.976-511.38-511.606 0-135.59 53.877-265.792 149.733-361.646 199.344-200.243 523.053-201.142 723.297-1.797 200.241 199.345 201.139 523.054 1.795 723.296zM511.38-18.092c-257.262 0-466.708 209.221-466.708 466.483s209.446 466.708 466.708 466.708c257.262 0 466.483-209.221 466.483-466.483s-209.221-466.708-466.483-466.708z" />
<glyph unicode="&#xe90a;" glyph-name="11" d="M512 960c-282.3 0-512-229.7-512-512s229.7-512 512-512c282.301 0 512 229.699 512 512s-229.699 512-512 512zM512-11.136c-253.225 0-459.135 205.911-459.135 459.136s205.91 459.135 459.135 459.135c253.225 0 459.136-205.91 459.136-459.135s-205.911-459.136-459.136-459.136zM798.794 599.987l-77.711 77.975c-10.309 10.309-26.962 10.309-37.271 0l-247.939-247.939-95.158 95.158c-10.307 10.309-26.959 10.309-37.268 0l-77.712-77.975c-10.309-10.309-10.309-26.962 0-37.271l191.901-191.9c10.309-10.309 26.962-10.309 37.268 0l343.89 344.681c10.309 10.309 10.309 26.962 0 37.271zM435.61 274.071l-154.365 154.368 40.44 40.707 95.158-95.158c10.309-10.309 26.962-10.309 37.271 0l248.202 247.936 40.44-40.44-307.146-307.412z" />
<glyph unicode="&#xe90b;" glyph-name="12" d="M851.003 877.85c-78.241 0-140.063-62.787-140.063-141.029 0-78.243 62.787-140.062 140.063-140.062s141.030 62.787 141.030 141.028c0 78.242-62.787 140.063-141.030 140.063zM851.003 627.668c-60.854 0-110.118 49.265-110.118 110.119s50.23 109.153 110.118 109.153c60.856 0 110.118-49.264 110.118-110.118 0-60.856-49.262-109.153-110.118-109.153zM895.437 715.571c-0.965 2.898-0.965 4.83-2.898 7.728-0.965 1.932-1.933 4.83-3.863 6.762-1.933 1.932-2.898 3.864-4.831 5.796s-3.863 3.864-6.761 4.83c-1.933 1.932-4.831 2.898-6.764 3.864-2.898 0.966-4.828 2.898-7.726 3.864s-5.796 1.932-7.729 2.898c-0.965 0-2.898 0.966-3.863 1.932s-2.898 0.966-3.863 1.932c-0.968 0.966-2.898 0.966-3.866 1.932-0.965 0.966-1.93 1.932-2.898 2.898-0.965 0.966-1.93 1.932-1.93 3.864-0.968 0.966-0.968 2.898-0.968 3.864 0 1.932 0 2.898 0 4.83 0 0.966 0.968 2.898 0.968 3.864 0.965 0.966 0.965 2.898 1.93 3.864 0.968 0.966 1.933 1.932 2.898 2.898 0.968 0.966 2.898 1.932 4.831 1.932 1.933 0.966 2.898 0.966 4.831 0.966 0.965 0 1.93 0 2.898 0 0.965 0 1.93 0 2.898 0 1.93 0 2.898 0 4.828-0.966 1.933 0 3.863-0.966 4.831-0.966 0.965 0 2.898-0.966 3.863-0.966 1.933 0 2.898-0.966 3.863-0.966l4.831-1.932 0.965 5.796 1.933 15.455v3.864l-3.863 0.966c-0.968 0-2.898 0.966-3.866 0.966-0.965 0-1.93 0.966-3.863 0.966-0.965 0-2.898 0.966-4.828 0.966-1.933 0-2.898 0.966-4.831 0.966h-0.965v18.353h-23.183v-19.319h-0.968c-2.898-0.966-5.796-1.932-8.691-3.864-2.898-0.966-4.831-2.898-6.764-4.83-1.93-1.932-3.863-3.864-5.796-6.762-1.93-1.932-2.898-4.83-3.863-7.728s-1.933-5.796-2.898-8.694c-0.965-2.898-0.965-6.762-0.965-9.66s0-4.83 0.965-7.728c0.965-2.898 0.965-4.83 2.898-7.728 0.965-1.932 2.898-4.83 3.863-6.761 1.933-1.932 2.898-3.864 4.831-5.796s3.863-3.864 6.761-4.83c1.933-1.932 4.831-2.898 6.761-3.864 2.898-0.966 5.796-2.898 7.729-3.864 2.898-0.966 5.796-1.932 7.729-2.898 0.965 0 2.898-0.966 3.863-1.932s2.898-0.966 3.863-1.932c0.968-0.966 1.933-1.932 2.898-1.932 0.968-0.966 1.933-1.932 2.898-2.898 0.968-0.966 0.968-1.932 1.933-3.864 0-0.966 0.965-2.898 0.965-4.83s0-2.898 0-4.831c0-0.965-0.965-2.898-1.93-3.863-0.968-0.965-1.933-1.93-2.898-2.898-0.968-0.965-1.933-1.93-3.866-2.898-0.965-0.965-2.898-0.965-3.863-1.93-0.965 0-2.898-0.968-4.831-0.968-0.965 0-1.93 0-3.863 0-0.965 0-2.898 0-3.863 0-1.933 0-3.866 0-4.831 0-1.933 0-3.863 0.968-4.831 0.968-1.93 0-3.863 0.965-5.793 1.93-1.933 0.968-3.866 0.968-5.796 1.933-0.968 0-1.933 0.965-2.898 0.965-0.968 0-1.933 0.968-2.898 0.968l-5.796 2.895-0.968-6.761-1.93-17.388v-2.898l2.898-0.965c3.863 0.965 5.796 0 8.694-0.965 1.93-0.968 4.828-1.933 6.761-1.933 1.933-0.965 4.831-0.965 7.726-1.933 2.898-0.965 4.831-0.965 7.729-0.965h1.933v-19.318h23.183v20.283h0.965c2.898 0.968 5.796 1.933 8.694 3.866 2.898 0.965 4.828 2.898 7.726 4.828 1.933 1.933 3.866 3.866 5.796 6.764 1.933 1.93 2.898 4.828 4.831 7.726 0.965 2.898 1.933 5.796 2.898 8.694s0.965 5.796 0.965 9.66c0 2.898 0 4.83-0.965 7.728zM783.386 578.401c-4.828 6.764-15.455 7.729-22.216 2.898l-156.485-124.608-201.884 84.040c-4.828 1.93-10.624 0.965-14.49-1.933l-216.372-154.552c-6.761-4.828-8.694-14.49-3.864-21.251 2.898-4.831 7.728-6.761 12.558-6.761 2.898 0 5.796 0.965 8.694 2.898l209.612 149.722 202.849-84.037c4.831-1.933 11.592-0.968 15.455 1.93l163.246 129.439c6.761 4.831 7.729 15.455 2.898 22.216zM1009.418 49.060h-71.48v447.235c0 8.694-6.761 15.455-15.455 15.455h-141.996c-8.694 0-15.455-6.761-15.455-15.455v-447.235h-52.16v292.682c0 8.694-6.764 15.455-15.457 15.455h-142.961c-8.694 0-15.455-6.761-15.455-15.455v-292.682h-52.16v315.866c0 8.694-6.764 15.455-15.457 15.455h-141.993c-8.694 0-15.455-6.761-15.455-15.455v-315.866h-52.163v225.065c0 8.694-6.762 15.457-15.455 15.457h-142.961c-8.694 0-15.455-6.764-15.455-15.457v-225.065h-72.446c-8.694 0-15.455-6.761-15.455-15.455s6.762-15.457 15.455-15.457h992.998c8.694 0 15.455 6.764 15.455 15.457 0.965 8.694-5.796 15.455-14.49 15.455zM229.896 49.060h-111.085v209.61h111.085v-209.61zM455.928 49.060h-111.084v300.411h111.084v-300.411zM680.996 49.060h-111.084v277.228h111.084v-277.228zM907.028 49.060h-111.084v431.78h111.084v-431.78z" />
<glyph unicode="&#xe90c;" glyph-name="13" d="M772.923 960h-521.846c-33.231 0-59.077-27.077-59.077-59.077v-905.846c0-33.231 27.077-59.077 59.077-59.077h521.846c33.231 0 59.077 27.077 59.077 59.077v905.846c0 33.231-25.846 59.077-59.077 59.077zM792.614-4.923c0-11.077-8.614-19.692-19.692-19.692h-521.846c-11.077 0-19.692 8.614-19.692 19.692v905.846c0 11.077 8.615 19.692 19.692 19.692h521.846c11.077 0 19.692-8.615 19.692-19.692v-905.846zM694.154 811.075h-364.308c-25.846 0-46.769-20.923-46.769-46.769v-631.385c0-25.846 20.923-46.769 46.769-46.769h364.308c25.846 0 46.769 20.923 46.769 46.769v631.385c0 25.846-20.923 46.769-46.769 46.769zM701.537 131.692c0-3.694-3.692-7.386-7.383-7.386h-364.308c-3.692 0-7.386 3.692-7.386 7.386v632.614c0 3.693 3.694 7.385 7.386 7.385h364.308c3.692 0 7.383-3.692 7.383-7.385v-632.614zM582.154 411.080c-1.231 3.692-2.463 8.614-3.694 12.306-1.229 3.694-3.692 7.386-6.152 9.848-2.463 3.692-4.923 6.152-8.617 8.614-3.692 2.46-6.154 6.154-9.846 8.614-3.692 2.463-7.386 4.923-11.077 7.386-3.692 2.46-8.614 4.923-12.308 6.154-4.923 2.46-8.614 3.692-13.537 4.923-2.463 1.231-4.923 1.231-6.154 2.46-2.46 1.231-4.923 2.463-6.154 2.463-2.46 1.231-3.692 2.46-6.154 3.692-1.229 1.231-3.692 2.463-4.923 4.923-1.229 1.231-2.46 3.694-3.692 6.154-2.46 3.692-2.46 6.154-2.46 8.617 0 2.46 0 4.923 0 7.383 0 2.463 1.229 4.923 2.46 6.154 1.231 2.463 2.463 3.692 3.692 6.154 1.231 2.46 3.694 3.692 4.923 4.923 2.463 1.231 4.925 2.46 7.386 3.692 2.463 1.231 4.923 1.231 8.614 1.231 1.231 0 3.694 0 4.925 0 1.229 0 3.692 0 4.923 0 2.46 0 4.923 0 8.614-1.231 2.463 0 6.154-1.231 8.614-1.231 2.463 0 3.694-1.229 6.154-1.229 2.463-1.231 4.923-1.231 6.154-1.231l8.614-2.463 1.231 8.617 3.694 25.846 1.229 6.154-6.154 2.46c-2.46 1.231-3.692 1.231-6.152 1.231-1.231 0-3.694 1.231-6.154 1.231-2.463 0-4.923 1.231-7.386 1.231-2.46 0-4.923 1.229-7.383 1.229h-2.463v29.54h-38.154v-32h-2.46c-4.923-1.231-9.848-3.692-13.54-6.154s-8.614-4.923-12.308-8.614c-3.692-3.694-7.383-7.386-9.846-11.077-2.46-3.694-4.923-8.617-7.383-12.308-2.463-4.923-3.694-9.846-4.923-14.769-1.231-4.923-1.231-9.846-1.231-16 0-3.694 0-8.617 1.231-12.308 1.229-3.692 2.46-8.614 3.692-12.308 1.231-3.692 3.692-7.383 6.154-9.846 2.46-3.692 4.923-6.154 8.614-8.614 3.692-2.463 7.386-4.923 9.846-7.386 3.694-2.46 7.386-4.923 12.308-7.383 4.923-2.463 8.614-3.694 13.537-6.154 4.925-2.463 8.617-3.694 13.54-4.923 2.46-1.231 4.923-1.231 6.154-2.463 2.46-1.231 3.692-2.46 6.154-3.692 2.46-1.231 3.692-2.463 4.923-3.692 1.229-1.231 2.46-2.463 3.692-4.925 1.231-1.229 2.463-3.692 2.463-6.152 1.229-2.463 1.229-4.923 1.229-7.386s0-4.923 0-7.386c0-2.46-1.229-4.923-2.46-6.152-1.231-2.463-2.463-3.694-4.923-4.925-1.231-1.229-3.694-2.46-6.154-3.692-2.463-1.231-3.692-2.46-6.154-2.46-2.463-1.231-4.923-1.231-7.386-1.231-2.46 0-3.692 0-6.152 0-2.463 0-3.694 0-6.154 0-2.463 0-6.154 0-8.617 1.231-2.46 0-6.154 1.229-8.614 1.229-3.692 1.231-7.386 1.231-9.846 2.463-3.694 1.231-7.386 2.46-9.846 3.692-1.231 0-2.463 1.231-3.694 1.231-1.229 1.231-2.46 1.231-3.692 2.463l-9.846 4.923-1.231-9.848-1.231-30.769-1.229-4.923 4.923-2.46c3.692-1.231 7.383-3.694 11.077-4.923 3.692-1.231 7.383-2.463 11.075-3.694 3.694-1.231 7.386-2.46 12.308-2.46 3.692-1.231 8.617-1.231 12.308-2.463h2.46v-30.769h38.154v32h2.463c4.923 1.231 9.846 3.692 14.769 6.154 4.923 2.46 8.614 4.923 12.308 8.614 3.692 3.692 7.383 7.386 9.846 11.077 2.46 3.692 4.923 8.614 7.383 12.308 2.463 4.923 3.694 9.846 4.925 14.769 1.229 4.923 1.229 9.846 1.229 14.769-1.229 6.154-1.229 9.846-2.46 13.54zM560 48h-96c-11.077 0-19.692-8.614-19.692-19.692s8.614-19.694 19.692-19.694h96c11.077 0 19.692 8.617 19.692 19.694s-8.614 19.692-19.692 19.692zM532.923 876.306h-40.614c-11.077 0-19.694-8.615-19.694-19.692s8.617-19.692 19.694-19.692h40.614c11.077 0 19.692 8.615 19.692 19.692s-8.614 19.692-19.692 19.692z" />
<glyph unicode="&#xe90d;" glyph-name="14" d="M922.89 783.636l-312.614 169.28c-29.655 16.063-70.431 3.707-86.492-25.948l-182.874-339.796h-222.411c-28.419 0-50.661-22.241-50.661-50.66v-549.852c0-28.419 22.241-50.66 50.661-50.66h710.482c28.419 0 50.66 22.241 50.66 50.66v128.504h21.007c11.121 0 19.768 8.65 19.768 19.771v147.039c0 11.121-8.648 19.771-19.768 19.771h-21.007v144.566c0 23.478-17.298 44.483-39.539 49.426l108.736 201.405c16.061 30.891 4.941 69.196-25.948 86.494zM700.477 859.009l-195.228-362.036h-55.603l208.819 384.277 42.012-22.241zM559.616 908.434c6.177 11.121 21.005 16.063 32.125 9.885l30.892-17.299-217.469-404.047h-67.96l222.413 411.461zM106.143 537.748c0 3.707 4.943 9.884 11.121 9.884h201.405l-27.182-49.426h-174.223c-3.707 0-7.414 0-11.121-1.234v40.776zM838.866-13.34c0-6.177-4.941-11.121-11.121-11.121h-710.482c-6.178 0-11.121 4.943-11.121 11.121v459.651c0 6.18 4.943 11.121 11.121 11.121h709.248c6.177 0 11.121-4.941 11.121-11.121v-144.566h-75.374c-33.362 0-59.31-27.185-59.31-59.31v-67.96c0-33.362 27.185-59.31 59.31-59.31h76.608v-128.504zM878.408 262.203h1.234v-107.5h-117.384c-11.121 0-19.771 8.65-19.771 19.771v67.96c0 11.121 8.65 19.768 19.771 19.768h116.15zM913.004 716.912l-118.62-219.94h-244.652l185.344 342.266 168.044-91.436c12.357-4.942 16.064-19.77 9.884-30.89zM837.632 735.446l-9.887 4.942c-24.712 13.592-58.074 3.707-71.665-21.006l-12.357-23.478c-6.177-12.355-8.65-27.182-3.707-40.776 3.707-13.591 13.591-24.712 25.948-30.889l9.884-4.943c7.414-3.707 16.064-6.177 24.714-6.177 19.768 0 37.069 11.121 46.953 27.182l12.357 23.478c12.355 25.948 2.47 58.074-22.241 71.666zM824.038 682.314l-12.355-23.478c-3.707-6.177-12.357-8.648-18.534-4.941l-9.887 6.177c-2.47 1.236-4.941 4.943-6.177 7.414-1.236 3.707-1.236 7.414 1.236 9.884l12.355 23.478c2.473 3.707 7.414 7.414 12.357 7.414 2.47 0 3.707 0 6.177-1.235l9.887-4.942c4.941-4.943 7.414-12.357 4.941-19.771z" />
<glyph unicode="&#xe90e;" glyph-name="15" d="M961.756 731.23l-444.736 162.635c-4.017 1.004-7.027 1.004-11.044 0l-442.729-162.635c-7.027-3.012-12.047-10.039-10.039-18.071 1.004-7.027 7.027-13.051 15.059-13.051h887.466c8.033 0 14.057 6.024 16.064 13.051 1.004 8.031-3.013 15.059-10.040 18.071zM159.623 733.238l352.377 128.502 352.376-128.502h-704.753zM1007.939 99.763h-45.179v50.196c0 9.037-7.027 16.064-16.061 16.064h-26.102v49.19c0 9.037-7.027 16.064-16.064 16.064h-10.038v389.522h40.156c9.034 0 16.064 7.027 16.064 16.061 0 9.037-7.030 16.064-16.064 16.064h-845.302c-9.036 0-16.063-7.027-16.063-16.064 0-9.034 7.027-16.061 16.063-16.061h40.157v-389.522h-10.039c-9.035 0-16.063-7.027-16.063-16.064v-49.19h-26.102c-9.035 0-16.063-7.027-16.063-16.064v-50.196h-45.177c-9.035 0-16.063-7.027-16.063-16.061v-66.258c0-9.037 7.027-16.064 16.063-16.064h991.876c9.034 0 16.061 7.027 16.061 16.064v66.258c0 9.034-7.027 16.061-16.061 16.061zM814.18 620.8h47.186v-389.522h-47.186v389.522zM788.078 199.153h100.393v-33.129h-100.393v33.129zM568.22 620.8h213.834v-389.522h-10.038c-9.037 0-16.064-7.027-16.064-16.064v-49.19h-161.631v49.19c0 9.037-7.027 16.064-16.064 16.064h-10.038v389.522zM488.909 620.8h47.186v-389.522h-47.186v389.522zM461.804 199.153h100.393v-33.129h-100.393v33.129zM241.945 620.8h213.835v-389.522h-10.038c-9.037 0-16.064-7.027-16.064-16.064v-49.19h-161.631v49.19c0 9.037-7.027 16.064-16.063 16.064h-10.039v389.522zM162.635 620.8h47.184v-389.522h-47.184v389.522zM135.529 199.153h100.392v-33.129h-100.392v33.129zM93.365 133.898h837.27v-34.135h-837.27v34.135zM991.875 33.505h-959.749v34.132h959.749v-34.132z" />
<glyph unicode="&#xe90f;" glyph-name="16" d="M887.693 58.268c-3.82 15.283-6.367 56.041-7.642 92.977-6.367 161.751-17.83 482.706-273.83 542.566 2.547 3.82 3.82 7.642 3.82 11.462 0 10.189-7.642 19.105-19.103 20.378 42.030 40.756 80.238 106.985 96.796 192.318 2.547 10.189 0 19.104-6.369 26.746-11.461 14.010-33.114 15.284-50.944 15.284-26.747 0-63.683-5.095-103.165-10.189-43.302-6.368-89.155-11.463-124.815-11.463-19.105 0-33.114 1.274-43.305 5.095-6.367 2.547-12.736 1.274-17.83-2.547s-8.914-10.189-8.914-16.557c0-71.323 44.577-150.289 94.249-198.687-8.916-2.547-15.286-10.189-15.286-19.105 0-5.094 1.275-8.916 5.097-12.736-253.454-63.683-264.917-380.815-271.285-542.566-1.274-36.936-2.547-78.966-7.642-92.977-25.473-3.82-44.577-25.472-44.577-52.219v-16.556c0-29.294 24.199-53.494 53.492-53.494h731.065c29.294 0 53.494 24.2 53.494 53.494v16.556c1.272 25.472-17.833 48.399-43.305 52.219zM376.968 898.866c39.483-3.821 100.616 3.821 156.657 11.463 38.208 5.095 72.596 10.189 98.068 10.189 7.642 0 12.736 0 16.558-1.274-24.2-108.259-84.060-174.488-123.543-192.318h-29.294c-42.030 19.105-106.985 96.796-118.446 171.94zM891.515-11.781c0-6.369-5.094-12.736-12.736-12.736h-731.066c-6.368 0-12.736 5.094-12.736 12.736v16.558c0 6.367 5.094 12.736 12.736 12.736 35.662 0 36.935 44.577 39.483 132.457 6.368 179.581 19.105 514.547 326.049 514.547 306.947 0 319.683-334.966 326.052-514.547 3.82-87.88 5.094-132.457 39.483-132.457 6.367 0 12.736-5.094 12.736-12.736v-16.558zM585.843 276.058c-2.547 3.822-3.822 7.644-6.369 11.464-2.547 3.822-6.367 6.369-8.914 10.189-3.822 3.822-7.642 6.369-11.464 8.916-3.82 2.547-7.642 5.094-12.736 7.642s-8.916 5.094-14.011 6.367c-5.094 2.547-10.189 3.822-14.008 6.369-2.547 1.272-5.094 1.272-7.642 2.547-2.547 1.272-5.094 2.547-7.642 3.822-2.547 1.272-3.822 2.547-6.369 3.82-1.272 1.275-3.82 3.822-5.094 5.094-1.272 2.547-2.547 3.822-3.822 6.369-1.272 2.547-1.272 5.094-2.547 7.642 0 2.547 0 5.094 0 7.642s1.275 5.094 2.547 7.642c1.275 2.547 2.55 5.094 3.822 6.367 1.275 2.547 3.822 3.822 6.369 5.097 2.547 1.272 5.094 2.547 7.642 3.82 2.547 1.275 6.367 1.275 8.914 1.275s3.822 0 5.094 0c1.275 0 3.822 0 6.369 0s6.367 0 8.914-1.275c2.547 0 6.369-1.272 8.916-1.272s5.094-1.275 6.369-1.275c2.547-1.275 5.094-1.275 6.367-2.547l8.916-2.547 1.272 10.189 3.822 28.019 1.272 6.369-6.367 2.547c-2.547 1.272-5.094 1.272-6.369 1.272-1.272 0-3.82 1.275-6.367 1.275-2.547 1.272-5.094 1.272-7.642 1.272s-6.369 1.275-8.916 1.275h-2.547v33.114h-39.483v-34.388l-2.547-1.272c-5.094-1.275-10.189-3.822-15.283-6.369s-8.916-5.094-12.736-8.914c-3.822-3.822-7.642-7.642-10.189-11.464-2.547-3.82-5.094-8.914-7.642-14.008-2.547-5.097-3.822-10.191-5.094-15.286-1.275-5.094-1.275-11.461-1.275-17.83 0-5.094 0-8.914 1.275-14.008 1.272-5.094 2.547-8.916 5.094-14.011 2.547-3.822 5.094-7.642 7.642-11.464 2.547-3.82 6.367-6.367 8.914-10.189 3.822-2.547 7.642-6.367 11.464-8.914 3.82-2.547 8.914-5.094 12.736-7.642 5.094-2.547 10.189-5.094 14.011-6.369 5.094-2.547 10.189-3.822 15.283-6.369 2.547-1.272 5.094-1.272 7.642-2.547 2.547-1.272 5.094-2.547 6.367-3.82 2.547-1.275 3.822-2.547 6.369-3.822 1.272-1.272 3.82-3.82 5.094-5.094 1.275-2.547 2.547-3.82 3.822-6.367 1.272-2.547 1.272-5.094 1.272-7.642s0-5.094 0-7.642c0-2.547-1.272-5.094-2.547-7.642-1.272-2.55-2.547-3.822-5.094-6.369-1.275-1.275-3.822-3.822-6.369-5.094-2.547-1.275-5.094-2.547-7.642-2.547-2.547-1.275-5.094-1.275-7.642-1.275s-3.82 0-6.367 0c-2.547 0-5.094 0-6.369 0-2.547 0-6.367 0-8.914 1.275-2.547 0-6.369 1.272-8.916 1.272-3.822 1.275-7.642 1.275-11.464 2.547-3.82 1.275-7.642 2.547-11.461 3.822-1.275 0-2.547 1.272-5.094 2.547-1.275 1.272-2.547 1.272-5.094 2.547l-10.189 5.094-1.275-11.464-3.82-30.566-1.275-6.367 5.094-2.547c3.822-1.275 7.642-3.822 11.464-5.094 3.82-1.275 7.642-2.55 12.736-3.822 3.82-1.275 8.914-2.547 12.736-3.822 5.094-1.272 8.914-1.272 14.011-2.547h2.547v-33.114h38.208v34.388h2.547c5.094 1.272 11.464 3.82 16.558 6.367 5.094 2.55 8.914 5.097 14.008 8.916 3.822 3.822 7.642 7.642 11.464 11.464 2.547 3.82 6.367 8.914 7.642 14.008 2.547 5.094 3.82 10.189 5.094 16.558 1.275 5.094 1.275 11.464 1.275 16.558 0 10.189-1.275 15.283-1.275 19.103-1.275 5.094-2.547 8.916-5.094 12.736z" />
<glyph unicode="&#xe910;" glyph-name="17" d="M894.159 428.541c-163.141-2.491-363.64-11.208-420.928-13.699l-105.853 407.228c-2.491 11.208-13.699 17.435-24.906 13.699-201.747-51.059-342.472-232.88-342.472-440.854 0-251.558 205.482-457.042 457.042-457.042s457.044 205.484 457.044 457.042c0 4.982 0 9.964 0 14.945 0 9.964-9.964 18.68-19.927 18.68zM457.042-22.275c-230.388 0-417.191 186.803-417.191 417.19 0 183.068 119.553 344.963 293.901 398.512l104.609-403.492c2.491-8.719 11.21-14.945 19.927-14.945 2.491 0 227.899 11.208 415.946 13.699-2.491-227.899-189.294-410.964-417.193-410.964zM1023.675 490.808c-3.735 200.502-144.458 377.341-339.978 427.155-11.208 2.491-21.171-3.736-24.909-13.699l-109.588-423.417c-1.247-6.228 0-12.454 3.735-17.436s9.964-7.473 14.945-7.473h1.244c2.491 0 245.332 11.208 435.871 13.699 4.982 0 9.964 2.491 13.701 6.228 3.735 3.735 6.226 8.717 4.979 14.943zM595.277 497.037l97.137 377.339c161.894-49.814 278.958-195.521 292.657-364.888-150.687-2.491-323.791-9.964-389.793-12.452zM481.951 497.034c2.488-8.717 9.961-14.943 19.924-14.943s17.434 6.226 19.924 14.943l109.591 423.419c1.247 4.982 0 9.963-2.491 14.944s-7.47 7.472-12.452 8.717c-74.721 18.68-154.424 18.68-229.146 0-4.982-1.245-9.961-4.981-12.452-8.717-2.491-4.981-3.738-9.963-2.491-14.944l109.591-423.419zM585.313 910.49l-84.685-328.771-84.682 328.771c54.794 12.454 114.573 12.454 169.367 0zM327.526 384.955c-1.244 3.738-3.735 7.473-6.226 9.964-2.491 3.738-4.982 6.226-8.717 8.717-3.738 2.491-6.228 6.228-9.964 8.719-3.738 2.491-7.473 4.979-11.208 7.47-3.738 2.491-8.719 4.982-12.454 6.228-4.982 2.491-8.717 3.735-13.699 4.982-2.491 1.244-4.982 1.244-6.226 2.488-2.491 1.247-4.983 2.491-6.228 2.491-2.491 1.247-3.736 2.491-6.227 3.738-1.245 1.244-3.736 2.491-4.981 4.982-1.245 1.244-2.491 3.735-3.736 6.226s-1.245 4.982-1.245 7.473c0 2.491 0 4.982 0 7.473s1.245 4.979 2.491 6.226c1.245 2.491 2.491 3.735 3.736 6.226s3.736 3.738 4.981 4.982c2.491 1.247 4.982 2.491 7.472 3.735 2.49 1.247 4.981 1.247 8.716 1.247 1.247 0 3.738 0 4.982 0 1.247 0 3.738 0 4.982 0 2.491 0 4.982 0 8.717-1.247 2.491 0 6.228-1.244 8.719-1.244s3.735-1.244 6.226-1.244c2.491-1.247 4.982-1.247 6.226-1.247l8.719-2.491 1.244 8.717 3.735 26.153 1.247 6.226-9.964 1.247c-2.491 1.244-3.735 1.244-6.226 1.244-1.247 0-3.738 1.247-6.226 1.247-2.491 0-4.982 1.244-7.473 1.244s-4.982 1.247-7.473 1.247h-2.491v32.379h-37.36v-32.379h-2.491c-4.982-1.247-9.963-3.738-13.699-6.228-3.736-2.488-8.718-4.979-12.454-8.717-3.736-3.735-7.472-7.473-9.963-11.208s-4.982-8.717-7.472-12.454c-2.491-4.979-3.736-9.961-4.981-14.943s-1.245-9.964-1.245-16.189c0-3.738 0-8.717 1.245-12.454 1.245-3.735 2.491-8.717 3.736-12.454 1.245-3.735 3.736-7.47 6.227-9.961 2.491-3.738 4.981-6.228 8.717-8.717 3.736-2.491 7.472-4.982 9.963-7.473 3.736-2.491 7.472-4.982 12.454-7.473s8.717-3.735 13.699-6.226c4.981-2.491 8.717-3.738 13.7-4.982 2.491-1.247 4.979-1.247 6.226-2.491 2.491-1.247 3.735-2.491 6.226-3.738 2.491-1.244 3.738-2.488 4.982-3.735 1.247-1.244 2.491-2.491 3.735-4.982 1.247-1.244 2.491-3.735 2.491-6.226 1.247-2.491 1.247-4.982 1.247-7.473s0-4.982 0-7.473c0-2.491-1.247-4.982-2.491-6.226-1.247-2.491-2.491-3.735-4.982-4.982-1.244-1.244-3.735-2.491-6.226-3.735-2.491-1.247-3.738-2.491-6.228-2.491-2.488-1.247-4.979-1.247-7.47-1.247s-3.737 0-6.228 0c-2.491 0-3.736 0-6.227 0s-6.227 0-8.717 1.247c-2.491 0-6.227 1.244-8.718 1.244-3.736 1.247-7.472 1.247-9.963 2.491-3.736 1.247-7.472 2.491-9.963 3.738-1.245 0-2.491 1.244-3.736 1.244-1.245 1.247-2.491 1.247-3.736 2.491l-9.963 4.982-1.245-9.964v-29.888l-1.245-4.982 4.981-2.491c3.736-1.244 7.472-3.735 11.208-4.982 3.736-1.244 7.472-2.491 11.208-3.735s7.472-2.491 12.453-2.491c3.736-1.244 8.718-1.244 12.454-2.491h2.491v-31.132h37.36v32.379h2.491c4.982 1.244 9.964 3.735 14.945 6.226 4.979 2.491 8.717 4.982 12.452 8.717 3.738 3.738 7.473 7.473 9.964 11.208 2.491 3.738 4.982 8.719 7.473 12.454 2.491 4.982 3.735 9.964 4.982 14.945 1.244 4.979 1.244 9.961 1.244 14.943s0 8.717-1.244 12.454c-1.247 3.735-2.491 8.717-3.738 12.452z" />
<glyph unicode="&#xe911;" glyph-name="18" d="M1005.673 880.394h-987.346c-10.309 0-18.327-8.018-18.327-18.327v-753.682c0-10.309 8.018-18.327 18.327-18.327h122.559v-56.125c0-10.309 8.018-18.327 18.327-18.327h151.195c10.309 0 18.327 8.018 18.327 18.327v56.125h366.531v-56.125c0-10.309 8.018-18.327 18.327-18.327h151.196c10.307 0 18.324 8.018 18.324 18.327v56.125h122.56c10.309 0 18.327 8.018 18.327 18.327v753.682c0 10.309-8.018 18.327-18.327 18.327zM292.081 53.404h-114.542v37.798h114.542v-37.798zM846.461 53.404h-114.542v37.798h114.542v-37.798zM864.788 126.712h-828.135v717.028h949.548v-717.028h-121.413zM918.623 795.631h-762.846c-10.309 0-18.327-8.018-18.327-18.327v-60.707h-28.635c-10.309 0-18.327-8.018-18.327-18.327v-134.013c0-10.309 8.018-18.327 18.327-18.327h28.635v-120.269h-28.635c-10.309 0-18.327-8.018-18.327-18.324v-134.013c0-10.309 8.018-18.327 18.327-18.327h28.635v-60.708c0-10.309 8.018-18.327 18.327-18.327h762.846c10.309 0 18.327 8.018 18.327 18.327v583.016c0 10.309-8.018 18.327-18.327 18.327zM127.141 582.584v97.359h57.271v-97.359h-57.271zM127.141 291.648v97.362h57.271v-97.362h-57.271zM900.296 212.616h-726.193v42.381h28.635c10.309 0 18.327 8.018 18.327 18.327v134.013c0 10.307-8.018 18.324-18.327 18.324h-28.635v120.269h28.635c10.309 0 18.327 8.018 18.327 18.327v134.013c0 10.309-8.018 18.327-18.327 18.327h-28.635v42.38h726.193v-546.362zM703.283 619.238c-73.306 0-132.867-59.564-132.867-132.869 1.144-73.306 60.705-132.867 132.867-132.867 73.308 0 132.869 59.561 132.869 132.867s-59.561 132.869-132.869 132.869zM703.283 389.010c-52.687 0-96.215 43.525-96.215 96.215 0 52.687 43.528 96.215 96.215 96.215 52.69 0 96.215-43.528 96.215-96.215 0-52.69-43.525-96.215-96.215-96.215zM703.283 548.224c-34.363 0-61.852-27.489-61.852-61.852 1.147-34.36 28.636-61.852 61.852-61.852 34.363 0 61.852 27.492 61.852 61.852 0 34.363-27.489 61.852-61.852 61.852zM703.283 460.027c-13.745 0-25.198 11.456-25.198 25.201 1.144 13.745 11.453 25.198 25.198 25.198s25.201-11.453 25.201-25.198c0-13.745-11.456-25.201-25.201-25.201z" />
<glyph unicode="&#xe912;" glyph-name="19" d="M591.411 394.365c-1.393 4.178-2.785 9.751-4.178 13.932-1.393 4.178-4.18 8.358-6.966 11.144-2.788 4.18-5.573 6.968-9.754 9.754s-6.966 6.966-11.146 9.751c-4.178 2.788-8.358 5.573-12.539 8.361-4.178 2.785-9.751 5.573-13.932 6.966-5.573 2.785-9.751 4.18-15.324 5.573-2.788 1.393-5.573 1.393-6.966 2.785-2.788 1.393-5.573 2.788-6.966 2.788-2.788 1.393-4.18 2.785-6.966 4.178-1.395 1.393-4.18 2.788-5.573 5.573-1.395 1.393-2.788 4.18-4.18 6.966-2.785 2.788-2.785 5.573-2.785 8.361 0 2.785 0 5.571 0 8.358 0 2.785 1.393 5.573 2.785 6.966 1.393 2.785 2.785 4.18 4.18 6.966 1.393 2.785 4.178 4.18 5.573 5.573 2.785 1.393 5.571 2.785 8.358 4.18 2.785 1.393 5.573 1.393 9.751 1.393 1.395 0 4.18 0 5.573 0s4.18 0 5.573 0c2.788 0 5.573 0 9.754-1.393 2.785 0 6.966-1.395 9.751-1.395 2.788 0 4.18-1.393 6.966-1.393 2.788-1.393 5.573-1.393 6.966-1.393l9.754-2.788 1.393 9.754 4.18 29.258 1.393 6.966-6.966 2.785c-2.788 1.393-4.18 1.393-6.966 1.393-1.393 0-4.18 1.393-6.966 1.393-2.788 0-5.573 1.395-8.361 1.395-2.785 0-5.571 1.393-8.358 1.393h-2.785v33.436h-43.19v-36.224h-2.788c-5.571-1.393-11.144-4.178-15.324-6.966-4.18-2.785-9.751-5.571-13.932-9.751s-8.358-8.358-11.146-12.539c-2.785-4.18-5.573-9.754-8.358-13.932-2.788-5.573-4.18-11.146-5.573-16.719s-1.393-11.146-1.393-18.112c0-4.178 0-9.751 1.393-13.932s2.785-9.751 4.18-13.932c1.393-4.18 4.178-8.358 6.966-11.146 2.785-4.178 5.573-6.966 9.751-9.751 4.18-2.788 8.361-5.573 11.146-8.361 4.18-2.785 8.358-5.571 13.932-8.358 5.573-2.785 9.754-4.18 15.327-6.966 5.571-2.785 9.751-4.18 15.324-5.573 2.785-1.393 5.573-1.393 6.966-2.785 2.785-1.395 4.18-2.788 6.966-4.18 2.788-1.393 4.18-2.785 5.573-4.18 1.393-1.393 2.785-2.785 4.18-5.571 1.393-1.395 2.785-4.18 2.785-6.968 1.393-2.785 1.393-5.571 1.393-8.358 0-2.785 0-5.573 0-8.358 0-2.788-1.393-5.573-2.785-6.966-1.393-2.788-2.788-4.18-5.573-5.573-1.393-1.393-4.18-2.788-6.966-4.18-2.788-1.393-4.18-2.785-6.966-2.785-2.788-1.393-5.573-1.393-8.358-1.393-2.788 0-4.18 0-6.968 0-2.785 0-4.178 0-6.966 0-2.785 0-6.966 0-9.751 1.393-2.788 0-6.966 1.393-9.754 1.393-4.178 1.393-8.358 1.393-11.144 2.785-4.18 1.395-8.361 2.788-11.146 4.18-1.393 0-2.788 1.393-4.18 1.393-1.393 1.393-2.785 1.393-4.178 2.788l-11.146 5.573-1.393-11.146-4.18-32.044-1.393-5.573 5.573-2.785c4.178-1.395 8.358-4.18 12.539-5.573 4.178-1.395 8.358-2.788 12.536-4.18 4.18-1.393 8.361-2.785 13.934-2.785 4.178-1.395 9.751-1.395 13.932-2.788h2.785v-36.224h45.975v36.224h2.788c5.573 1.393 11.146 4.18 16.717 6.966 5.573 2.788 9.754 5.573 13.934 9.754 4.178 4.178 8.358 8.358 11.144 12.539 2.788 4.178 5.573 9.751 8.361 13.932 2.785 5.573 4.178 11.146 5.573 16.717 1.393 5.573 1.393 11.146 1.393 16.719-1.393 5.573-1.393 9.754-2.788 15.327zM512 689.718c-140.713 0-253.563-114.24-253.563-253.56s112.85-254.956 253.563-254.956c140.713 0 253.563 114.243 253.563 253.563 0 139.318-112.85 254.953-253.563 254.953zM512 225.784c-115.635 0-208.98 93.343-208.98 208.98 0 115.635 93.345 208.978 208.98 208.978s208.98-93.343 208.98-208.978c0-115.638-93.345-208.98-208.98-208.98zM911.846 861.083c-5.571 4.18-13.932 5.573-20.897 2.787-44.582-18.112-87.772-26.471-129.567-26.471-146.286 0-231.27 111.456-231.27 112.849-4.18 5.573-11.146 9.752-18.112 9.752s-13.932-2.786-18.112-9.752c-1.393-1.393-84.984-112.849-231.27-112.849-41.796 0-84.985 8.359-129.567 26.471-6.966 2.786-15.325 1.393-20.898-2.787s-9.752-11.145-9.752-18.111v-462.543c0-161.61 126.781-369.196 404.027-443.036 1.393 0 4.18-1.393 5.573-1.393s4.18 0 5.573 1.393c277.245 73.841 404.027 281.426 404.027 443.036v462.543c0 6.966-4.18 13.932-9.754 18.111zM512-19.418c-250.775 69.66-365.018 254.956-365.018 398.454v431.892c39.010-12.539 78.019-19.505 114.243-19.505 129.567 0 214.551 72.446 249.382 110.063 34.829-37.616 119.813-110.063 249.382-110.063 37.617 0 76.626 6.966 114.243 19.505v-431.892h2.785c0-143.498-114.243-328.794-365.018-398.454z" />
<glyph unicode="&#xe913;" glyph-name="20" d="M905.846 516.218c52.512-30.322 52.512-106.114 0-136.436l-708.923-409.297c-52.513-30.318-118.154 7.582-118.154 68.218v818.594c0 60.637 65.641 98.534 118.154 68.216l708.923-409.295z" />
<glyph unicode="&#xe914;" glyph-name="21" d="M861.526 505.412h-0.076c34.267 38.22 52.148 94.935 52.148 149.694 0 40.6-16.116 79.51-44.82 108.214-28.703 28.703-67.613 44.82-108.212 44.82s-79.512-16.117-108.214-44.82c-28.703-28.704-44.82-67.614-44.82-108.214 0-43.784 12.741-90.677 34.152-125.327 5.296-8.634 11.282-16.769 17.959-24.33h-0.115c-35.611 0.078-70.339-11.127-99.234-31.965-13.009 2.15-26.132 3.224-39.334 3.262h-25.711c15.925 14.352 29.741 30.814 41.099 48.927 31.734 49.885 49.961 115.466 49.961 179.972 0.193 56.524-22.102 110.823-62.011 150.885-39.832 39.985-94.052 62.511-150.577 62.511-56.564 0-110.785-22.525-150.655-62.587-39.909-40.062-62.204-94.361-62.012-150.886 0-62.011 18.036-128.283 48.235-177.285 11.59-19.188 25.979-36.571 42.594-51.612h-25.518c-10.936 0-21.872-0.807-32.694-2.304-38.604-5.794-69.686-20.644-76.747-24.214-69.648-36.147-116.924-105.603-116.924-185.268v-125.481c0-85.727 69.495-155.259 155.26-155.259h569.081c12.702 0 23.024 10.322 23.024 23.024v146.088h124.215c84.154 0 152.42 68.229 152.42 152.42v47.315c-0.039 84.038-72.872 152.42-162.474 152.42zM653.58 655.106c0 28.359 11.28 55.564 31.312 75.635 20.070 20.069 47.276 31.313 75.635 31.313 28.396 0 55.564-11.282 75.635-31.313 20.068-20.070 31.351-47.276 31.351-75.635 0-57.866-29.088-149.694-107.024-149.694-77.859 0-106.908 91.828-106.908 149.694zM207.409 715.737c5.411 87.876 78.205 156.411 166.234 156.526 91.982-0.115 166.541-74.675 166.658-166.657 0-1.19-0.039-2.417-0.078-3.607-64.16 7.33-119.534 21.604-194.324 80.239-7.52 5.91-17.92 6.523-26.132 1.573l-112.357-68.075zM248.47 552.456c-19.225 31.199-32.694 70.762-38.373 111.092l120.148 72.719c78.051-57.944 139.18-72.641 205.951-80.163-6.371-38.795-19.802-76.21-38.605-105.757-21.373-33.616-60.246-73.677-123.908-73.677-52.111 0.037-94.245 25.518-125.213 75.786zM701.278 30.192h-116.695v141.177c0 11.704-8.403 22.141-20.031 23.599-14.043 1.765-26.016-9.132-26.016-22.831v-141.945h-329.63v141.177c0 11.704-8.404 22.141-20.031 23.599-14.045 1.765-26.017-9.132-26.017-22.831v-141.945c-64.506 0-116.809 52.304-116.809 116.771v117.922c0 91.406 80.853 165.775 180.28 165.775h294.67c99.426 0 180.279-74.369 180.279-165.775v-234.693zM872.233 199.305h-124.908v65.579c0 82.504-50.653 154.071-124.369 189.028 11.858 3.645 24.177 5.489 36.61 5.489h201.998c64.16 0 116.386-47.698 116.386-106.371v-48.044c-0.037-58.366-47.352-105.681-105.718-105.681z" />
<glyph unicode="&#xe915;" glyph-name="22" d="M1022.564 387.905c-0.004 0.006-0.004 0.008-0.006 0.014l-193.335 488.658c-4.104 10.383-15.795 15.451-26.11 11.321-0.006-0.003-0.014-0.005-0.022-0.010l-784.337-314.381c-3.199-1.39-5.973-3.612-8.041-6.433-6.523-3.413-10.644-10.165-10.714-17.564v-526.094c0-11.173 9-20.234 20.101-20.234h844.259c11.101 0 20.102 9.060 20.102 20.234v287.328l126.88 50.869c10.313 4.139 15.334 15.911 11.223 26.291zM844.258 43.652h-804.056v485.624h804.056v-485.624zM335.392 569.643l336.579 135.003c30.039-31.784 71.66-49.847 115.241-50.019l33.569-84.984h-485.39zM884.462 354.208v195.302c0 11.173-9.001 20.234-20.102 20.234h-0.321l-42.594 107.687c-0.473 0.898-1.024 1.753-1.648 2.55-2.156 9.744-11.122 16.394-21.008 15.581-40.548-3.722-80.217 13.472-105.391 45.688-6.264 7.783-17.274 9.718-25.789 4.533-0.955-0.114-1.902-0.291-2.836-0.526l-410.912-164.707c-4.974-1.963-8.95-5.855-11.036-10.805h-124.79l681.277 273.062 178.479-451.124-93.33-37.474zM94.758 180.254c39.027-11.613 69.566-42.315 81.149-81.585 2.54-8.572 10.372-14.444 19.257-14.446 1.043 0.065 2.078 0.223 3.096 0.465 0.902-0.258 1.824-0.447 2.753-0.567h482.434c0.829 0.108 1.648 0.278 2.454 0.506 10.043-2.458 20.163 3.742 22.609 13.85 0.008 0.039 0.018 0.075 0.026 0.112 11.553 39.31 42.096 70.055 81.148 81.686 9.47 2.914 15.356 12.414 13.791 22.258 0.268 0.981 0.463 1.983 0.583 2.995v161.875c-0.118 1.014-0.319 2.015-0.603 2.993 1.575 9.848-4.313 19.352-13.791 22.258-39.052 11.628-69.589 42.386-81.109 81.707-2.911 9.598-12.44 15.537-22.272 13.879-0.929 0.262-1.877 0.451-2.836 0.567h-482.434c-1.012-0.122-2.015-0.323-2.993-0.607-9.778 1.568-19.21-4.354-22.112-13.881-11.561-39.302-42.102-70.038-81.149-81.666-9.47-2.914-15.355-12.414-13.79-22.258-0.261-0.983-0.45-1.983-0.563-2.993v-161.875c0.116-0.951 0.304-1.892 0.563-2.814-1.648-9.907 4.249-19.513 13.79-22.459zM120.608 359.186c40.364 16.319 72.355 48.522 88.567 89.153h466.091c16.219-40.631 48.219-72.834 88.586-89.153v-145.445c-40.35-16.337-72.336-48.534-88.566-89.151h-466.111c-16.23 40.617-48.216 72.814-88.567 89.151v145.445zM442.23 165.057c66.611 0 120.609 54.355 120.609 121.407 0 67.050-53.998 121.405-120.609 121.405-66.609 0-120.608-54.355-120.608-121.405 0.065-67.025 54.026-121.34 120.608-121.407zM442.23 367.401c44.408 0 80.406-36.238 80.406-80.937 0-44.702-35.998-80.937-80.406-80.937-44.406 0-80.406 36.236-80.406 80.937s36 80.937 80.406 80.937zM221.115 256.112c16.652 0 30.153 13.59 30.153 30.352 0 16.76-13.501 30.352-30.153 30.352s-30.152-13.592-30.152-30.352c0-16.764 13.5-30.352 30.152-30.352zM221.115 296.58c5.551 0 10.051-4.529 10.051-10.116 0-5.589-4.5-10.118-10.051-10.118-5.549 0-10.051 4.529-10.051 10.118 0 5.587 4.502 10.116 10.051 10.116zM663.347 256.112c16.652 0 30.151 13.59 30.151 30.352 0 16.76-13.499 30.352-30.151 30.352s-30.153-13.592-30.153-30.352c0-16.764 13.501-30.352 30.153-30.352zM663.347 296.58c5.549 0 10.051-4.529 10.051-10.116 0-5.589-4.502-10.118-10.051-10.118-5.551 0-10.051 4.529-10.051 10.118 0 5.587 4.5 10.116 10.051 10.116z" />
<glyph unicode="&#xe916;" glyph-name="23" d="M511.953 820.41c-51.363 0-93.137-41.773-93.137-93.137 0-51.365 41.775-93.135 93.137-93.135 51.365 0 93.135 41.772 93.135 93.135s-41.772 93.137-93.135 93.137zM511.953 680.683c-25.681 0-46.59 20.908-46.59 46.59s20.908 46.59 46.59 46.59c25.684 0 46.592-20.908 46.592-46.59s-20.908-46.59-46.592-46.59zM1000.727 541.091c12.863 0 23.273 10.347 23.273 23.21v93.079c0 8.204-4.317 15.816-11.387 19.998l-455.249 270.358c-0.207 0.137-0.412 0.251-0.614 0.364-28.295 15.681-60.204 16.156-90.138-0.319l-455.224-270.404c-7.069-4.18-11.387-11.795-11.387-19.998v-93.079c0-12.863 10.409-23.21 23.273-23.21h69.818v-418.928c-51.343 0-93.092-41.744-93.092-93.079v-69.814c0-12.861 10.409-23.27 23.273-23.27h977.454c12.863 0 23.273 10.408 23.273 23.27v69.814c0 51.335-41.749 93.079-93.091 93.079v418.928h69.818zM977.455 29.091v-46.543h-930.91v46.543c0 25.658 20.886 46.545 46.545 46.545h837.82c25.658 0.002 46.545-20.885 46.545-46.545zM139.636 122.184v418.907h93.091v-418.907h-93.091zM279.273 122.184v418.907h139.636v-418.907h-139.636zM465.452 122.184v418.907h93.093v-418.907h-93.093zM605.089 122.184v418.907h139.636v-418.907h-139.636zM791.273 122.184v418.907h93.091v-418.907h-93.091zM46.545 587.636v56.569l443.16 263.272c14.499 7.977 29.908 7.955 44.227 0.159l443.522-263.431v-56.569h-930.91z" />
<glyph unicode="&#xe917;" glyph-name="24" d="M789.83 418.484c1.008 78.243 43.027 152.278 109.686 193.26-42.052 60.057-112.488 98.136-185.769 100.429-78.162 8.204-153.935-46.77-193.766-46.77-40.6 0-101.922 45.956-167.958 44.597-86.074-2.781-166.317-51.718-208.194-126.971-90.019-155.853-22.873-384.906 63.358-510.886 43.143-61.688 93.565-130.597 159.54-128.152 64.56 2.678 88.674 41.168 166.604 41.168 77.21 0 99.831-41.168 167.145-39.616 69.278 1.126 112.925 61.964 154.556 124.239 30.999 43.954 54.852 92.535 70.675 143.94-81.411 34.434-135.782 116.367-135.875 204.763zM662.683 795.024c37.773 45.345 56.382 103.628 51.876 162.473-57.71-6.061-111.017-33.642-149.299-77.247-37.435-42.605-56.919-99.862-53.236-156.458 57.729-0.594 114.483 26.239 150.658 71.232z" />
<glyph unicode="&#xe918;" glyph-name="25" horiz-adv-x="922" d="M41.352 926.542c-11.147-11.827-17.735-30.182-17.735-53.952v-849.253c0-23.808 6.588-42.125 17.735-53.952l2.834-2.765 474.564 475.738v11.213l-474.564 475.775-2.834-2.803zM676.913 283.725l-158.162 158.63v11.213l158.2 158.592 3.564-2.035 187.425-106.752c53.514-30.49 53.514-80.371 0-110.899l-191.027-108.749zM680.515 285.76l-161.802 162.202-477.359-478.579c17.62-18.739 46.77-21.043 79.598-2.381l559.563 318.758zM680.515 610.163l-559.563 318.721c-32.828 18.701-61.978 16.358-79.598-2.381l477.397-478.58 161.764 162.24z" />
<glyph unicode="&#xe919;" glyph-name="26" d="M771.362 395.051l-0.023-0.016c-40.607-28.525-58.448-79.91-42.507-127.429h-0.006l0.25-0.7 69.268-195.174c1.161-3.527 1.519-6.645 1.411-9.5-0.404-7.674-5.962-17.249-17.971-22.989-11.366-5.422-24.041-5.080-34.674 2.384l-0.006 0.006-172.328 120.929c-20.262 14.199-43.955 21.208-67.475 21.208s-47.213-7.009-67.476-21.208l-0.027-0.017-172.244-120.917c-0.001 0-0.002 0-0.003 0-10.607-7.441-23.37-7.811-34.821-2.35-12.145 5.791-17.513 15.36-17.815 22.767l-0.003 0.080c-0.115 2.702 0.225 5.865 1.465 9.614l69.427 195.794c16.055 47.57-1.822 99.003-42.51 127.524-0.003 0.002-0.006 0.004-0.009 0.006l-172.339 120.841c-0.002 0.002-0.005 0.003-0.007 0.005s-0.006 0.004-0.009 0.006c-10.772 7.57-14.883 20.721-10.35 35.168 4.494 14.323 15.259 22.81 28.845 22.81h212.925c40.327 0 91.736 15.881 109.995 69.983l0.038 0.113 65.769 196.69c0.006 0.019 0.013 0.038 0.019 0.056 4.254 12.506 15.251 19.711 29.131 19.711 13.941 0 24.921-7.249 29.114-19.663 0.005-0.014 0.009-0.027 0.014-0.040l65.83-196.867c18.256-54.088 69.586-69.983 109.995-69.983h212.924c13.585 0 24.354-8.487 28.848-22.81 4.534-14.453 0.415-27.61-10.371-35.179l-172.294-120.851z" />
<glyph unicode="&#xe91a;" glyph-name="27" d="M790.95 845.010h-20.239v63.428c0 31.322-21.263 51.622-51.622 51.622-30.419 0-51.682-20.299-51.682-51.622v-63.428h-336.233v63.428c0.12 21.504 0.12 51.563-60.115 51.622-30.118 0-43.189-20.299-43.189-51.622v-63.428h-46.622c-98.184 0-181.248-70.957-181.248-183.718v-532.178c0-98.063 83.064-180.947 181.248-180.947h609.702c98.244 0 181.308 82.884 181.308 180.947v532.178c0 112.76-83.064 183.718-181.308 183.718zM181.248 753.813h609.702c41.562 0 78.005-36.382 78.005-92.521v-57.163h-765.651v57.163c0 56.139 36.442 92.521 77.944 92.521zM790.95 52.254h-609.702c-41.502 0-77.944 34.394-77.944 76.86v372.012h764.627v-372.012c0-42.466-35.418-76.86-76.981-76.86zM286.118 417.882h90.353c24.95 0 45.176-20.226 45.176-45.176s-20.226-45.176-45.176-45.176h-90.353c-24.95 0-45.176 20.226-45.176 45.176s20.226 45.176 45.176 45.176zM286.118 237.176h90.353c24.95 0 45.176-20.226 45.176-45.176s-20.226-45.176-45.176-45.176h-90.353c-24.95 0-45.176 20.226-45.176 45.176s20.226 45.176 45.176 45.176zM587.294 417.882h90.353c24.95 0 45.176-20.226 45.176-45.176s-20.226-45.176-45.176-45.176h-90.353c-24.95 0-45.176 20.226-45.176 45.176s20.226 45.176 45.176 45.176zM587.294 237.176h90.353c24.95 0 45.176-20.226 45.176-45.176s-20.226-45.176-45.176-45.176h-90.353c-24.95 0-45.176 20.226-45.176 45.176s20.226 45.176 45.176 45.176z" />
<glyph unicode="&#xe91b;" glyph-name="28" d="M501.615 331.994c-179.209 0-325.014 140.865-325.014 314.003s145.805 314.003 325.014 314.003c179.209 0 325.012-140.866 325.012-314.003s-145.803-314.003-325.012-314.003zM501.615 829.166c-104.727 0-189.591-81.99-189.591-183.169s84.864-183.168 189.591-183.168c104.727 0 189.592 81.99 189.592 183.168s-84.865 183.169-189.592 183.169zM930.905-49.172c28.89 23.115 32.952 64.109 9.475 92.023-95.696 112.954-237.437 177.5-388.207 177.5h-80.351c-150.77 0-292.512-64.983-388.21-177.5-23.925-27.914-19.41-69.345 9.48-92.023 28.89-23.115 71.774-18.753 95.247 9.161 69.968 82.425 173.34 129.959 283.483 129.959h80.351c110.143 0 213.513-47.097 283.486-129.959 13.537-15.701 32.952-23.989 52.361-23.989 14.896 0 30.242 5.236 42.885 14.828z" />
<glyph unicode="&#xe91c;" glyph-name="29" d="M68.976 245.613l-66.88-215.558c-11.2-36.627 24.32-70.534 63.040-60.243l228.8 61.152c193.28-91.731 428.163-59.942 582.403 85.978 196.8 186.191 196.8 489.843 0 676.029s-533.123 171.656-708.163 6.055c-175.040-165.601-193.6-371.164-99.2-553.412zM803.699 185.664c-128.32-121.395-326.083-146.829-483.843-62.061-11.84 6.362-25.92 8.173-39.040 4.544l-154.56-41.178 45.12 145.318c3.84 12.416 2.24 26.035-4.16 37.242-87.68 148.947-70.4 324.841 72 459.865 142.72 135.023 407.043 144.408 564.483-4.844 157.76-149.252 157.76-389.631 0-538.886z" />
<glyph unicode="&#xe91d;" glyph-name="30" d="M425.925 171.134h0.003l-85.186-85.191-340.742 340.745 85.185 85.185 255.554-255.555 553.706 553.71 85.191-85.186-553.712-553.709z" />
<glyph unicode="&#xe91e;" glyph-name="31" d="M506.851 278.331l0.003-0.003-144.816-144.815-362.038 362.038 144.815 144.816 217.22-217.22 434.452 434.452 144.816-144.815-434.452-434.454z" />
<glyph unicode="&#xe91f;" glyph-name="32" d="M512 728c-110.4 0-200-89.6-200-200s89.6-200 200-200c110.4 0 200 89.6 200 200s-89.6 200-200 200zM512 408c-66.133 0-120 53.867-120 120s53.867 120 120 120c66.133 0 120-53.867 120-120s-53.867-120-120-120zM512 960c-287.2 0-512-224.8-512-512 0-288 225.867-512 512-512 286.4 0 512 224.269 512 512 0 287.2-224.8 512-512 512zM512 16c-93.867 0-180 28.531-250.133 77.6 47.2 93.331 144.266 154.4 250.133 154.4s203.2-61.069 250.131-154.4c-70.131-49.069-156.264-77.6-250.131-77.6zM824.531 146.931c-26.131 45.338-61.6 84.8-105.331 115.469-60.8 42.931-132.533 65.6-207.2 65.6s-146.4-22.669-207.2-65.6c-43.467-30.669-79.2-69.869-105.333-115.469-74.4 77.338-119.467 182.936-119.467 301.069 0 242.133 189.867 432 432 432 242.131 0 432-189.867 432-432 0-118.133-45.069-223.731-119.469-301.069z" />
<glyph unicode="&#xe920;" glyph-name="33" d="M1020.998 139.002c6.202-15.002 2.4-32.403-9.197-43.802-7.603-7.398-17.6-11.2-27.802-11.2-5.402 0-11.002 1.203-16.198 3.398l-214.598 94.605c-27.002-10.202-54.605-18.003-83.002-23.206-28.998-47.795-70.602-88.397-121.002-117.798-56.4-32.998-121.4-50.598-188.2-50.995-1 0-1.999-0.205-3-0.205-46.2 0-91 8-133.4 23.802l-168.4-74.202c-5.2-2.195-10.6-3.398-16.2-3.398-10.2 0-20.2 3.802-27.8 11.2-11.6 11.398-15.4 28.602-9.2 43.802l58.4 144.595c-40.2 54.605-61.4 118.202-61.4 185.403 0 107.201 55.6 207 149.6 269.201 8.6 95.6 53.4 184.4 128 252.6 82.6 75.6 192 117.2 308.4 117.2s225.802-41.6 308.4-117.2c83.597-76.4 129.6-178.4 129.6-287 0-18-1.6-38.399-4.403-57.599-3.2-21.8-23.597-37-45.395-33.6-21.798 3.2-37.005 23.6-33.6 45.4 2.195 15.2 3.597 31.8 3.597 45.8-0.198 178.8-160.8 324.2-358.198 324.2-197.4 0-358-145.4-358-324.2 0-156.6 143.8-324.203 358-324.203 53.2 0 104.4 10.4 152.202 30.803 10.202 4.403 21.798 4.198 31.795-0.198l140.006-61.6-47.206 116.602c-8.198 20.397 1.6 43.796 22.003 51.997s43.802-1.6 52-22l84.198-208.198zM563.2 152c-110.8 5.203-213.4 48.403-291 123.2-62.4 60-103.6 136.4-118.4 216.2-47-45.999-74-106.4-74-170.4 0-55.796 19.999-108.801 57.599-153 9.601-11.398 12.2-27.2 6.6-40.998l-30-74.598 93.6 41.197c10.2 4.397 21.6 4.602 31.8 0.198 36.8-15.597 76.001-23.597 116.801-24 0.6 0 1 0 1.599 0 79 0.205 153.4 31.002 205.4 82.202z" />
<glyph unicode="&#xe921;" glyph-name="34" d="M816.2 833.2c-81.802 81.8-190.602 126.8-306.2 126.8-115.6 0-224.6-45-306.4-126.8s-126.8-190.6-126.8-306.2c0-233.998 221.2-428.599 340.2-533.2 16.6-14.602 30.8-26.998 42.2-37.601 14.2-13.399 32.6-19.999 50.8-19.999s36.6 6.6 50.8 19.999c11.4 10.604 25.6 23.204 42.198 37.601 118.804 104.602 340.204 299.203 340.204 533.2-0.2 115.6-45.199 224.4-127.002 306.2zM563.2 38.6c-16.8-14.802-31.4-27.602-43.4-38.999-5.6-5.202-14.2-5.202-19.6 0-12 11.197-26.6 23.997-43.4 38.999-112 98.401-320 281.4-320 488.4 0 205.6 167.4 373 373.2 373s373.2-167.4 373.2-373.2c-0.2-206.8-208.2-389.799-320-488.2zM510 734.2c-105.2 0-190.8-85.6-190.8-190.8s85.6-190.801 190.8-190.801c105.199 0 190.8 85.402 190.8 190.601s-85.601 191-190.8 191zM510 412.401c-72.2 0-130.8 58.8-130.8 130.8s58.8 130.8 130.8 130.8c72 0 130.799-58.8 130.799-130.8s-58.799-130.8-130.799-130.8z" />
<glyph unicode="&#xe922;" glyph-name="35" d="M860.489 856.057h-117.442v16.683c0 8.849-3.519 17.336-9.777 23.593s-14.74 9.772-23.59 9.772c-8.85 0-17.338-3.515-23.595-9.772s-9.771-14.744-9.771-23.593v-16.683h-351.67v16.683c0 8.849-3.515 17.336-9.772 23.593s-14.744 9.772-23.593 9.772c-8.849 0-17.336-3.515-23.593-9.772s-9.772-14.744-9.772-23.593v-16.683h-117.446c-37.227-0.088-72.905-14.916-99.229-41.24s-41.151-62.001-41.239-99.228v-585.229c0.088-37.225 14.916-72.903 41.239-99.226s62.001-41.154 99.229-41.24h720.021c37.23 0.086 72.909 14.918 99.231 41.24s41.149 62.001 41.24 99.226v585.229c-0.092 37.227-14.918 72.904-41.24 99.228s-62.001 41.151-99.231 41.24zM140.468 789.327h117.446v-16.683c0-8.849 3.515-17.336 9.772-23.593s14.744-9.772 23.593-9.772c8.849 0 17.336 3.515 23.593 9.772s9.772 14.744 9.772 23.593v16.683h351.67v-16.683c0-8.849 3.514-17.336 9.771-23.593s14.746-9.772 23.595-9.772c8.85 0 17.333 3.515 23.59 9.772s9.777 14.744 9.777 23.593v16.683h117.442c19.558 0 38.314-7.768 52.143-21.597s21.596-32.584 21.596-52.14v-79.076h-867.497v79.076c0 19.556 7.769 38.312 21.597 52.14s32.584 21.597 52.14 21.597zM860.489 55.291h-720.021c-9.797 0-19.495 1.951-28.53 5.74s-17.223 9.34-24.088 16.325c-6.865 6.99-12.268 15.279-15.894 24.382-3.627 9.097-5.403 18.831-5.226 28.623v439.423h867.497v-439.423c0.178-9.793-1.601-19.526-5.222-28.623-3.627-9.103-9.033-17.392-15.899-24.382-6.861-6.985-15.053-12.536-24.086-16.325s-18.734-5.74-28.532-5.74z" />
<glyph unicode="&#xe923;" glyph-name="36" d="M854.614 829.936h-25.833v28.437c0 33.443-27.222 60.667-60.666 60.667h-18.633c-33.44 0-60.666-27.224-60.666-60.667v-28.437h-355.333v28.437c0 33.443-27.224 60.667-60.667 60.667h-18.631c-33.443 0-60.667-27.224-60.667-60.667v-28.437h-24.050c-70.86 0-128.508-57.648-128.508-128.508v-595.55c0-70.861 57.648-128.508 128.508-128.508h685.146c70.857 0 128.508 57.647 128.508 128.508v595.55c0 70.86-57.651 128.508-128.508 128.508zM719.757 858.373c0 16.386 13.316 29.701 29.7 29.701h18.633c16.384 0 29.7-13.315 29.7-29.701v-96.846c0-16.386-13.316-29.701-29.7-29.701h-18.633c-16.384 0-29.7 13.315-29.7 29.701v96.846zM224.458 858.373c0 16.386 13.341 29.701 29.701 29.701h18.631c16.386 0 29.701-13.315 29.701-29.701v-96.846c0-16.386-13.315-29.701-29.701-29.701h-18.631c-16.386 0-29.701 13.315-29.701 29.701v96.846zM169.443 798.97h24.050v-37.417c0-33.443 27.224-60.667 60.667-60.667h18.631c33.443 0 60.667 27.224 60.667 60.667v37.417h355.334v-37.417c0-33.443 27.222-60.667 60.666-60.667h18.633c33.444 0 60.666 27.224 60.666 60.667v37.417h25.829c53.805 0 97.542-43.765 97.542-97.542v-126.65h-880.228v126.65c0 53.803 43.765 97.542 97.543 97.542zM854.614 8.311h-685.172c-53.803 0-97.543 43.766-97.543 97.542v437.961h880.256v-437.936c0-53.801-43.766-97.542-97.542-97.542v-0.025zM353.607 466.432h-123.244c-8.541 0-15.483-6.943-15.483-15.483v-123.245c0-8.544 6.941-15.483 15.483-15.483h123.244c8.541 0 15.483 6.939 15.483 15.483v123.245c0 8.54-6.941 15.483-15.483 15.483zM338.124 343.187h-92.278v92.275h92.278v-92.275zM573.608 466.432h-123.245c-8.54 0-15.483-6.943-15.483-15.483v-123.245c0-8.544 6.943-15.483 15.483-15.483h123.245c8.54 0 15.483 6.939 15.483 15.483v123.245c0 8.54-6.943 15.483-15.483 15.483zM558.125 343.187h-92.279v92.275h92.279v-92.275zM669.401 312.222h123.245c8.544 0 15.483 6.939 15.483 15.483v123.245c0 8.54-6.939 15.483-15.483 15.483h-123.245c-8.54 0-15.483-6.943-15.483-15.483v-123.245c0-8.544 6.943-15.483 15.483-15.483zM684.884 435.462h92.279v-92.275h-92.279v92.275zM353.607 264.421h-123.244c-8.541 0-15.483-6.943-15.483-15.483v-123.245c0-8.544 6.941-15.483 15.483-15.483h123.244c8.541 0 15.483 6.939 15.483 15.483v123.245c0 8.54-6.941 15.483-15.483 15.483zM338.124 141.177h-92.278v92.279h92.278v-92.279zM573.608 264.421h-123.245c-8.54 0-15.483-6.943-15.483-15.483v-123.245c0-8.544 6.943-15.483 15.483-15.483h123.245c8.54 0 15.483 6.939 15.483 15.483v123.245c0 8.54-6.943 15.483-15.483 15.483zM558.125 141.177h-92.279v92.279h92.279v-92.279zM802.562 243.986l-84.124-82.006-38.375 36.54c-6.193 5.906-15.999 5.648-21.881-0.545s-5.652-15.999 0.541-21.881l49.16-46.838c2.994-2.839 6.836-4.28 10.682-4.28s7.795 1.47 10.813 4.387l94.806 92.43c6.115 5.964 6.246 15.77 0.283 21.885-5.96 6.115-15.766 6.242-21.881 0.283l-0.025 0.025z" />
<glyph unicode="&#xe924;" glyph-name="37" d="M966.538 734.838h-211.456v65.063c-0.055 44.898-36.431 81.274-81.329 81.329h-292.785c-44.898-0.056-81.274-36.432-81.329-81.329v-65.063h-211.456c-26.948 0-48.798-21.849-48.798-48.798v-362.075c0.103-20.634 13.105-38.987 32.532-45.922v-226.371c0-26.947 21.849-48.798 48.798-48.798h813.292c26.947 0 48.798 21.851 48.798 48.798v226.355c19.428 6.944 32.437 25.305 32.532 45.938v362.075c0 26.948-21.851 48.798-48.798 48.798zM332.17 799.902c0 26.948 21.849 48.798 48.798 48.798h292.785c26.947 0 48.798-21.849 48.798-48.798v-65.063h-32.532v65.063c0 8.983-7.282 16.266-16.266 16.266h-292.785c-8.983 0-16.266-7.283-16.266-16.266v-65.063h-32.532v65.063zM657.487 734.838h-260.254v48.798h260.254v-48.798zM950.272 51.673c0-8.984-7.282-16.266-16.266-16.266h-813.292c-8.983 0-16.266 7.282-16.266 16.266v220.782l357.849-49.357v-41.299c0-26.947 21.851-48.798 48.798-48.798h32.532c26.947 0 48.798 21.851 48.798 48.798v41.299l357.849 49.357v-220.782zM559.892 181.799c0-8.984-7.282-16.266-16.266-16.266h-32.532c-8.984 0-16.266 7.282-16.266 16.266v97.595c0 8.984 7.282 16.266 16.266 16.266h32.532c8.984 0 16.266-7.282 16.266-16.266v-97.595zM982.804 323.966c0.008-8.109-5.955-14.986-13.985-16.124l-376.395-51.901v23.454c0 26.947-21.851 48.798-48.798 48.798h-32.532c-26.947 0-48.798-21.851-48.798-48.798v-23.454l-376.378 51.901c-8.030 1.13-14.010 8.007-14.002 16.124v362.075c0 8.983 7.283 16.266 16.266 16.266h878.356c8.984 0 16.266-7.283 16.266-16.266v-362.075z" />
<glyph unicode="&#xe925;" glyph-name="38" d="M472.889-64v879.135l-218.631-211.434-55.147 53.709 312.889 302.589 312.889-302.589-55.148-53.331-218.63 211.056v-879.135h-78.222z" />
<glyph unicode="&#xe926;" glyph-name="39" d="M472.889 960v-879.138l-218.631 211.439-55.147-53.714 312.889-302.586 312.889 302.592-55.148 53.328-218.63-211.058v879.138h-78.222z" />
<glyph unicode="&#xe927;" glyph-name="40" d="M727.936 959.993l85.185-85.186-425.904-425.904 425.959-425.959-85.185-85.185-511.168 511.121 511.114 511.113z" />
<glyph unicode="&#xe928;" glyph-name="41" d="M296.064 959.993l-85.186-85.186 425.905-425.904-425.959-425.959 85.185-85.185 511.168 511.121-511.113 511.113z" />
<glyph unicode="&#xe929;" glyph-name="42" d="M438.519 960c-241.795 0-438.519-196.725-438.519-438.519 0-241.792 196.725-438.821 438.519-438.821 103.235 0 198.249 36.238 273.161 96.228l182.716-182.414c19.189-18.267 49.641-17.966 68.215 0.614 18.881 18.876 19.183 49.027 0.916 68.21l-182.721 182.716c59.995 75.218 96.233 170.233 96.233 273.468 0 241.795-197.029 438.519-438.519 438.519zM438.519 862.551c188.806 0 341.069-151.959 341.069-341.071 0-188.806-151.956-341.376-341.069-341.376-188.807 0-341.071 152.57-341.071 341.376 0 189.112 151.959 341.071 341.071 341.071z" />
<glyph unicode="&#xe92a;" glyph-name="43" d="M483.599 951l-459.399-325.999c-15.2-10.801-24.2-28.201-24.2-46.802v-573.599c0-31.601 25.6-57.4 57.4-57.4h909.2c31.601 0 57.4 25.6 57.4 57.4v573.599c0 18.601-9.001 36.001-24.2 46.802l-459.4 325.999c-17.001 12-39.8 12-56.801 0zM313.6 313.8l-253.6-262.4v476.401l253.6-214.001zM359.601 275l131-110.4c12.398-10.401 30.6-10.401 43 0l130.998 110.4 258.801-267.802h-822.6l258.801 267.802zM710.4 313.8l253.599 214.001v-476.401l-253.599 262.4zM945.001 590.4l-419.802-354.399c-7.598-6.4-18.598-6.4-26.199 0l-420 354.399 414 293.6c11.4 8 26.601 8 38.001 0l414.001-293.6z" />
<glyph unicode="&#xe92b;" glyph-name="44" d="M951.043 330.102l-148.055 36.879c-48.637 12.027-99.95-5.076-131.218-44.362l-154.734-193.487c-133.089 79.373-244.531 190.548-323.903 323.904l193.486 154.734c39.017 31.268 56.389 82.58 44.362 131.218l-37.148 148.054c-10.688 42.759-49.172 72.958-93.268 72.958h-204.175c-26.725 0-52.38-11.224-70.553-30.733s-27.259-45.432-25.656-71.889c17.104-238.382 119.726-462.869 288.892-632.036s393.654-271.79 632.038-288.893c2.138-0.266 4.541-0.266 6.682-0.266 53.181 0.266 96.207 43.292 96.207 96.476v203.907c0 44.365-30.198 82.847-72.957 93.537zM72.605 885.706c6.147 6.681 14.698 10.423 23.785 10.423h203.909c14.7 0 27.525-9.888 31.002-24.319l37.146-148.054c6.147-24.319-2.673-49.976-22.18-65.743l-185.202-148.321c-55.587 109.837-88.458 229.564-97.010 352.497-0.534 8.552 2.405 17.104 8.552 23.518zM959.862 32.658c0-9.088-3.743-17.638-10.424-23.785-6.413-5.88-14.966-9.088-23.785-8.553-122.665 8.553-242.391 41.423-352.228 97.011l148.321 185.201c15.767 19.51 41.423 28.060 65.741 22.182l148.055-37.148c14.164-3.474 24.32-16.302 24.32-31.002v-203.907zM544.069 736.848c141.64-0.267 256.289-114.917 256.556-256.557 0-17.638 14.433-32.069 32.072-32.069 17.636 0 32.069 14.431 32.069 32.069-0.269 176.916-143.78 320.428-320.696 320.696-17.638 0-32.069-14.431-32.069-32.069s14.164-32.070 32.069-32.070zM544.069 865.13c212.462-0.267 384.568-172.373 384.835-384.835 0-17.636 14.431-32.069 32.069-32.069s32.069 14.433 32.069 32.069c-0.266 247.738-201.236 448.707-448.973 448.974-17.638 0-32.069-14.431-32.069-32.069s14.164-32.070 32.069-32.070z" />
<glyph unicode="&#xe92c;" glyph-name="45" d="M512 960c-40.395 0-73.143-32.747-73.143-73.143v-365.714h-365.714c-40.396 0-73.143-32.747-73.143-73.143s32.747-73.143 73.143-73.143h365.714v-365.715c0-40.397 32.748-73.143 73.143-73.143s73.143 32.746 73.143 73.143v365.715l365.714 0.001c40.397 0 73.143 32.747 73.143 73.143s-32.746 73.143-73.143 73.143l-365.714-0.001v365.714c0 40.396-32.748 73.143-73.143 73.143z" />
<glyph unicode="&#xe92d;" glyph-name="46" d="M1024 448c0-40.396-32.747-73.143-73.143-73.143h-877.714c-40.396 0-73.143 32.747-73.143 73.143s32.747 73.143 73.143 73.143h877.714c40.396 0 73.143-32.747 73.143-73.143z" />
<glyph unicode="&#xe92e;" glyph-name="47" d="M1004.006 742.005c-26.658 26.66-69.888 26.66-96.546 0l-395.46-395.461-395.461 395.461c-26.66 26.66-69.884 26.66-96.544 0s-26.66-69.884 0-96.544l443.733-443.733c26.66-26.66 69.885-26.66 96.544 0l443.734 443.733c26.658 26.66 26.658 69.884 0 96.544z" />
</font>
</defs>
</svg>
